Télécharger va constellations the universe of earth wind fire

  • March 13, 2013, 3:27 pm
VA - Constellations: The Universe Of Earth, Wind & Fire (2013)

VA - Constellations: The Universe Of Earth, Wind & Fire (2013)
R&B, Soul, Pop, Disco | 320 kbps | MP3 | 371 Mb
  • January 1, 2014, 7:36 am
. .: Earth, Wind & Fire - Now, Then & Forever (2013) :. .

Earth, Wind & Fire - Now, Then & Forever (2013) [Multi]



Genre : Funk, Soul, Disco
Date de sortie : 2013

Earth, Wind & Fire - Now, Then & Forever (2013) [Multi]

CD1

1.Sign On
2.Love is Law
3.My Promise
4.Guiding Lights
5.Got to Be Love
6.Belo Horizonte
7.Dance Floor
8.Splashes
9.Night of My Life
10.The Rush

CD2

1.Can't Let Go
2.Runnin'
3.Shining Star
4.Turn It into Something Good
5.Power
6.You And I
7.Fantasy
  • January 2, 2014, 5:03 pm
. .: Earth Wind & Fire - Greatest Hits (Flac) :. .

Earth Wind & Fire - Greatest Hits (Flac) [Multi]



Genre : RnB, Soul, Funk
Date de sortie : 1998

Earth Wind & Fire - Greatest Hits (Flac) [Multi]

1. Shining Star
2. That's the Way of the World
3. September
4. Can't Hide Love
5. Got To Get You Into My Life
6. Sing a Song
7. Gratitude
8. Serpentine Fire
9. Fantasy
10. Kalimba Story
11. Mighty Mighty
12. Reasons
13. Saturday Nite
14. Let's Groove
15. Boogie Wonderland (with The Emotions)
16. After the Love Has Gone
17. Getaway
  • January 25, 2013, 8:21 am
[MULTi] The University Of Lounge (2013)

[MULTi] The University Of Lounge (2013)

[MULTi] The University Of Lounge (2013)

Artist: VA
Title Of Album: The University Of Lounge
Label: Suonaphone
Style: Lounge / Chillout
Date: 18 February, 2013
Quality: 320 kbps / 44100Hz / Joint Stereo
Tracks: 24
Total Time: 01:28:42 min
Size: 210 mb


  • April 25, 2013, 3:42 am
Earth Wind & Fire - Greatest Hits Live (1996) [Multi]

Earth Wind & Fire - Greatest Hits Live (1996)

Jazz, Funk | MP3 | 320 Kbps | 140 Mo
  • December 25, 2013, 5:19 am
Earth, Wind & Fire - Greatest Hits [Multi]

Earth, Wind & Fire - Greatest Hits

Soul, Funk, Disco | Flac | 320 Kbps | 511 Mo
  • December 2, 2013, 6:07 am
VA - Ibiza The Sound Of Renaissance Volume 3 (DJ mix) (2011)

VA - Ibiza The Sound Of Renaissance Volume 3 (DJ mix) (2011)


VA - Ibiza The Sound Of Renaissance Volume 3 (DJ mix) (2011)
Downtempo,Chillout,Deep House | PMI Dance
VBR | MP3 | unmixed | 2011 | 04:49:30 | 662 Mb
  • December 5, 2012, 9:57 pm
> RE-UP: l'ancien lien était cassé <
.: VARIOUS ARTISTS :..: THE ART OF LOVE :.
(THE OFFICIAL COMPILATION 2010)

[FS] VA - LOVEPARADE: THE ART OF LOVE (THE OFFICIAL COMPILATION 2010) [FS]


2 CD | 39 pistes | Date: 2010 | MP3 320 Kbps CBR | 359.73 MB
Genre: Pop
  • January 24, 2013, 6:52 am

The Megamix Of Dance & Club 2012 [RG]

The Megamix Of Dance & Club 2012
1. (Intro)
2. Shakira ft. Lil Wayne, Timbaland - Give It All To Me
3. Nelly Furtado - Say It Right vs Give It All To Me
4. D-Skyze R-n-B and Pop Medley (2006-2008)
5. Ke$ha - We R Who We R (bridge)
6. Gwen Stefani vs. Rick James - Hollaback Girl vs. Give It To Me Baby
7. Various Artists - Heaven is a Place on Earth (party break)
8. Various Artist - Patron Tequila (bridge)
9. Paradiso Girls ft. Lil Jon - Patron Tequila
10. Lady Gaga vs Paradiso Girls - Bad Romance (D-Skyze Mash)
11. MIA & Jay-Z - XXXO (Jay-Z’s verse)
12. Stevie B - Spring Love
13. D-Skyze Crazy Freestyle Break
14. Ke$ha - Tik Tok
15. Michael Jackson - Don’t Stop Till You Get Enough (Remix)
16. Survivor ft. Lil Jon - Eye of the Tiger
17. Usher - DJ Got Us Fallin’ In Love
18. Fabolous vs Robin S - Show Me Boogie Love
19. Rihanna - Only Girl (In The World)
20. Lady Gaga ft. Beyonce - Telephone
21. Ke$ha - Blow (snippet)
22. Connie - Funky Little Beat
23. Gucci Mane - Spotlight (snippet)
24. Auburn - La La La (D-Skyze Freestyle Mix)
25. Soul Sonic Force vs Crystal Method - Planet Rock vs Busy Child
26. Various Artist - Party Break
27. Pitbull - Hotel Room (Bmore remix)
28. Anita Ward - Ring My Bell (D-Skyze Bmore re-drum)
29. Various Artist - Party Break
30. Abba - Dancing Queen (snippet)
31. Lady Gaga vs Madonna - Express This Way (Mike D Remix)
32. Gloria Gaynor vs DJ Chuckie - Survive The Bass
33. Katy Perry -Firework (remix)
34. Planet Soul vs Various Artists - Set U Free (Mini Medley)
35. 2 Live Crew vs FEM - Throw That G6 (D-Skyze Mashup)
36. Far East Movement ft. Cataracs - Like A G6
37. D-Skyze vs Various Artists -Electro/Freestyle Mini Medley
38. Debbie Deb - Lookout Weekend
39. D-Skyze vs Various Artists - Electro Freestyle Break
40. Missy Elliot ft. Ciara - Lose Control
41. Daft Punk - Around The World (Haus-A-Holics remix)
42. Shakira vs Nicol Fasano - Whenever Wherever on 75 Brazil St (D-Skyze Blend)
43. Pitbull - Calle Ocho (D-Skyze Multitrack Latin House blend)
44. Shaft - Sway
45. Angelina - Mambo (Coolie re-drum)
46. Edward Maya - Stereo Love Party Break
47. Sir Mix-A-Lot - Baby Got Back
48. Salt-N-Pepa - Push It
49. Pitbull ft. T-Pain - Hey Baby (Drop It To The Floor) (snippet)
50. Ida Corr - Let Me Think About it (D-Skyze medley)
51. Katy Perry - California Gurls
52. House of Pain vs Alex Guadino - Jump Around
53. Enrique Iglesias ft. Ludacris - Tonight
54. Fergie vs Sheila E - Glamorous Life (mashup)
55. Dj Felli Fell vs Tone Loc - Feel It Wild Thing (Sean Paul’s verse)
56. Three Six Mafia vs Various Artist - Feel It (D-Skyze medley)
57. LMFAO - Party Rock Anthem (mashup snippet)
58. Trick Daddy ft. Lil Jon vs Ozzy Osbourne - Let’s Go vs Crazy Train (rmx)
59. LMFAO ft. Lil Jon vs Bon Jovi - Shots Through The Heart (snippet)
60. LMFAO ft. Lil Jon - Shots
61. Captain & Tennille - Love Will Keep Us Together (D-Skyze remix)
62. DJ Class ft. Lil Jon - I’m The Ish
63. Various Artists - D-Skyze Mini Medley
64. FloRida ft. David Guetta - Club Can’t Handle Me
65. MG - What Do You Remember
66. Jay Sean vs MJ - Do You Remember (snippet)
67. Earth Wind & Fire - September
68. Sheena Easton - Sugar Walls
69. Akon - Sexy Chick
70. Amber - Sexual
71. Afrojack - Take Over Control
72. Usher ft. Fatman Scoop - OMG
73. Various Artist - D-Skyze old vs new school medley
74. Nicki Minaj - Superbass (D-Skyze Jackin for Beats Remix)
75. Britney Spears - Hold It Against Me (dubstep to original)


Format : MPEG Audio
Duration : 1h 19mn
Bit rate mode : Constant
Bit rate : 192 Kbps
Channel(s) : 2 channels
Sampling rate : 44.1 KHz
Stream size : 108 MiB (100%)

  • February 4, 2013, 10:00 pm

The Megamix Of Dance & Club 2012 [RG]

The Megamix Of Dance & Club 2012
1. (Intro)
2. Shakira ft. Lil Wayne, Timbaland - Give It All To Me
3. Nelly Furtado - Say It Right vs Give It All To Me
4. D-Skyze R-n-B and Pop Medley (2006-2008)
5. Ke$ha - We R Who We R (bridge)
6. Gwen Stefani vs. Rick James - Hollaback Girl vs. Give It To Me Baby
7. Various Artists - Heaven is a Place on Earth (party break)
8. Various Artist - Patron Tequila (bridge)
9. Paradiso Girls ft. Lil Jon - Patron Tequila
10. Lady Gaga vs Paradiso Girls - Bad Romance (D-Skyze Mash)
11. MIA & Jay-Z - XXXO (Jay-Z’s verse)
12. Stevie B - Spring Love
13. D-Skyze Crazy Freestyle Break
14. Ke$ha - Tik Tok
15. Michael Jackson - Don’t Stop Till You Get Enough (Remix)
16. Survivor ft. Lil Jon - Eye of the Tiger
17. Usher - DJ Got Us Fallin’ In Love
18. Fabolous vs Robin S - Show Me Boogie Love
19. Rihanna - Only Girl (In The World)
20. Lady Gaga ft. Beyonce - Telephone
21. Ke$ha - Blow (snippet)
22. Connie - Funky Little Beat
23. Gucci Mane - Spotlight (snippet)
24. Auburn - La La La (D-Skyze Freestyle Mix)
25. Soul Sonic Force vs Crystal Method - Planet Rock vs Busy Child
26. Various Artist - Party Break
27. Pitbull - Hotel Room (Bmore remix)
28. Anita Ward - Ring My Bell (D-Skyze Bmore re-drum)
29. Various Artist - Party Break
30. Abba - Dancing Queen (snippet)
31. Lady Gaga vs Madonna - Express This Way (Mike D Remix)
32. Gloria Gaynor vs DJ Chuckie - Survive The Bass
33. Katy Perry -Firework (remix)
34. Planet Soul vs Various Artists - Set U Free (Mini Medley)
35. 2 Live Crew vs FEM - Throw That G6 (D-Skyze Mashup)
36. Far East Movement ft. Cataracs - Like A G6
37. D-Skyze vs Various Artists -Electro/Freestyle Mini Medley
38. Debbie Deb - Lookout Weekend
39. D-Skyze vs Various Artists - Electro Freestyle Break
40. Missy Elliot ft. Ciara - Lose Control
41. Daft Punk - Around The World (Haus-A-Holics remix)
42. Shakira vs Nicol Fasano - Whenever Wherever on 75 Brazil St (D-Skyze Blend)
43. Pitbull - Calle Ocho (D-Skyze Multitrack Latin House blend)
44. Shaft - Sway
45. Angelina - Mambo (Coolie re-drum)
46. Edward Maya - Stereo Love Party Break
47. Sir Mix-A-Lot - Baby Got Back
48. Salt-N-Pepa - Push It
49. Pitbull ft. T-Pain - Hey Baby (Drop It To The Floor) (snippet)
50. Ida Corr - Let Me Think About it (D-Skyze medley)
51. Katy Perry - California Gurls
52. House of Pain vs Alex Guadino - Jump Around
53. Enrique Iglesias ft. Ludacris - Tonight
54. Fergie vs Sheila E - Glamorous Life (mashup)
55. Dj Felli Fell vs Tone Loc - Feel It Wild Thing (Sean Paul’s verse)
56. Three Six Mafia vs Various Artist - Feel It (D-Skyze medley)
57. LMFAO - Party Rock Anthem (mashup snippet)
58. Trick Daddy ft. Lil Jon vs Ozzy Osbourne - Let’s Go vs Crazy Train (rmx)
59. LMFAO ft. Lil Jon vs Bon Jovi - Shots Through The Heart (snippet)
60. LMFAO ft. Lil Jon - Shots
61. Captain & Tennille - Love Will Keep Us Together (D-Skyze remix)
62. DJ Class ft. Lil Jon - I’m The Ish
63. Various Artists - D-Skyze Mini Medley
64. FloRida ft. David Guetta - Club Can’t Handle Me
65. MG - What Do You Remember
66. Jay Sean vs MJ - Do You Remember (snippet)
67. Earth Wind & Fire - September
68. Sheena Easton - Sugar Walls
69. Akon - Sexy Chick
70. Amber - Sexual
71. Afrojack - Take Over Control
72. Usher ft. Fatman Scoop - OMG
73. Various Artist - D-Skyze old vs new school medley
74. Nicki Minaj - Superbass (D-Skyze Jackin for Beats Remix)
75. Britney Spears - Hold It Against Me (dubstep to original)


Format : MPEG Audio
Duration : 1h 19mn
Bit rate mode : Constant
Bit rate : 192 Kbps
Channel(s) : 2 channels
Sampling rate : 44.1 KHz
Stream size : 108 MiB (100%)